<?xml version="1.0" standalone="no"?>
<!DOCTYPE svg PUBLIC "-//W3C//DTD SVG 1.1//EN" "http://www.w3.org/Graphics/SVG/1.1/DTD/svg11.dtd">
<svg xmlns="http://www.w3.org/2000/svg">
<defs >
<font id="Cambay" horiz-adv-x="445" ><font-face
    font-family="Cambay"
    units-per-em="800"
    panose-1="0 0 5 0 0 0 0 0 0 0"
    ascent="800"
    descent="-503"
    alphabetic="0" />
<glyph unicode=" " glyph-name="space" horiz-adv-x="220" />
<glyph unicode="!" glyph-name="exclam" horiz-adv-x="205" d="M132 90H83L152 493H219L132 90ZM70 -39T61 -31T52 -7Q52 12 62 24T93 37Q110 37 119 29T128 5Q128 -14 117 -26T87 -39Q70 -39 61 -31Z" />
<glyph unicode="&quot;" glyph-name="quotedbl" horiz-adv-x="283" d="M164 540T171 533T179 512Q179 507 177 497L138 375H106L115 501Q118 520 125 530T149 540Q164 540 171 533ZM274 540T281 533T289 512Q289 507 287 497L248 375H216L225 501Q228 520 235
530T259 540Q274 540 281 533Z" />
<glyph unicode="#" glyph-name="numbersign" horiz-adv-x="550" d="M66 347L55 295H179L155 169H32L22 117H145L115 -37H170L200 117H319L289 -37H345L375 117H500L510 169H385L409 295H534L545 347H420L448 494H392L364 347H245L273 494H218L190 347H66ZM353
295L329 169H210L234 295H353Z" />
<glyph unicode="$" glyph-name="dollar" horiz-adv-x="368" d="M202 375T171 359T139 314Q139 298 153 288T202 262L236 246Q280 228 299 207T319 156Q319 144 316 129Q309 93 272 65T181 32L165 -50H110L126 32Q72 38 15 61L40 111Q107 86 156 86Q192 86 221
101T255 144Q256 147 256 152Q256 167 241 177T180 208L143 225Q113 239 94 257T74 310Q74 317 76 331Q84 373 118 396T202 426L219 513H274L258 429Q313 426 355 406L332 357Q291 375 250 375Q202 375 171 359Z" />
<glyph unicode="%" glyph-name="percent" horiz-adv-x="501" d="M93 0L494 456H424L25 0H93ZM158 238T186 256T229 305T245 367Q245 407 222 431T161 456Q126 456 98 438T55 389T39 327Q39 286 61 262T123 238Q158 238 186 256ZM90 287T90 330Q90 358 107 382T151
407Q174 407 183 397T193 364Q193 336 175 312T130 287Q90 287 90 330ZM389 0T417 18T460 67T476 129Q476 169 453 193T392 218Q357 218 329 200T286 151T270 89Q270 48 292 24T354 0Q389 0 417 18ZM321 49T321 92Q321 120 338 144T382 169Q405 169 414 159T424
126Q424 98 406 74T361 49Q321 49 321 92Z" />
<glyph unicode="&amp;" glyph-name="ampersand" horiz-adv-x="599" d="M514 0H433L383 72Q324 25 279 4T176 -18Q118 -18 83 11T47 101Q47 150 86 199T219 310Q191 356 179 380T167 433Q167 488 206 523T320 558Q369 558 401 531T433 456Q433 418 404 382T309
296L398 167L516 272L557 226L434 116L514 0ZM274 503T254 483T233 435Q233 416 243 395T275 344Q318 373 343 400T368 455Q368 476 353 489T311 503Q274 503 254 483ZM223 42T260 62T348 122L252 262L231 247Q186 214 164 195T127 154T112 105Q112 42 188 42Q223
42 260 62Z" />
<glyph unicode="&apos;" glyph-name="quotesingle" horiz-adv-x="173" d="M164 540T171 533T179 512Q179 507 177 497L138 375H106L115 501Q118 520 125 530T149 540Q164 540 171 533Z" />
<glyph unicode="(" glyph-name="parenleft" horiz-adv-x="269" d="M119 159T119 100Q119 83 121 45Q131 -41 165 -128L119 -148Q60 -5 60 121Q60 175 70 229Q103 404 262 600L303 572Q232 481 190 393Q146 302 129 217Q119 159 119 100Z" />
<glyph unicode=")" glyph-name="parenright" horiz-adv-x="271" d="M163 278T163 345Q163 383 161 403Q153 484 117 576L163 596Q223 455 223 327Q223 272 213 219Q179 46 21 -152L-21 -124Q50 -33 92 55Q136 147 152 227Q163 278 163 345Z" />
<glyph unicode="*" glyph-name="asterisk" d="M294 424L401 487L422 436L309 380L400 327L363 278L279 341L257 225H199L225 341L118 279L97 329L211 383L118 436L157 487L242 424L260 540H318L294 424Z" />
<glyph unicode="+" glyph-name="plus" horiz-adv-x="452" d="M253 204V63H197V204H60V260H197V395H253V260H392V204H253Z" />
<glyph unicode="," glyph-name="comma" horiz-adv-x="192" d="M91 70T102 59T114 29Q114 -5 84 -42T13 -110L-10 -90Q32 -34 44 -16Q21 -5 21 21Q21 41 35 55T72 70Q91 70 102 59Z" />
<glyph unicode="-" glyph-name="hyphen" horiz-adv-x="346" d="M283 190H37L46 237H292L283 190Z" />
<glyph unicode="." glyph-name="period" horiz-adv-x="180" d="M38 -4T27 7T16 36Q16 55 30 70T66 86Q84 86 95 75T106 46Q106 27 92 12T56 -4Q38 -4 27 7Z" />
<glyph unicode="/" glyph-name="slash" horiz-adv-x="302" d="M36 -35L342 550H277L-29 -35H36Z" />
<glyph unicode="0" glyph-name="zero" horiz-adv-x="440" d="M272 464T307 420T343 299Q343 266 335 223Q316 123 258 58T117 -8Q44 -8 8 38T-29 162Q-29 198 -22 233Q-2 333 56 398T199 464Q272 464 307 420ZM181 45T221 100T277 233Q284 273 284 300Q284 350
264 380T197 411Q133 411 93 357T37 223Q30 185 30 157Q30 107 50 76T117 45Q181 45 221 100Z" />
<glyph unicode="1" glyph-name="one" horiz-adv-x="270" d="M158 50L148 0H-70L-60 50H16L84 400L8 372L-5 420L87 456H154L75 50H158Z" />
<glyph unicode="2" glyph-name="two" horiz-adv-x="357" d="M45 442T79 453T160 465Q207 465 242 437T278 356Q278 342 275 327Q265 278 233 240T129 138L35 55H225L214 0H-59L-58 45Q-31 71 53 146Q107 193 128 214Q178 258 195 282T218 337Q219 342 219 352Q219
378 201 392T148 407Q116 407 93 399T39 376L19 367L3 421Q45 442 79 453Z" />
<glyph unicode="3" glyph-name="three" horiz-adv-x="387" d="M219 466T252 442T286 370Q286 326 260 290T194 234Q226 223 246 201T266 145Q266 133 263 119Q250 60 202 28T82 -5Q37 -5 5 5T-69 35L-40 90Q-6 72 23 63T81 54Q186 54 202 132Q204 144 204 148Q204
181 171 193T64 205L73 261Q205 266 222 347Q223 352 223 362Q223 388 205 398T153 408Q124 408 100 400T27 372L12 427Q56 447 91 456T161 466Q219 466 252 442Z" />
<glyph unicode="4" glyph-name="four" horiz-adv-x="397" d="M309 165L298 109H219L198 -1H139L160 109H-58V154L203 456H287L230 165H309ZM22 165H171L217 394L22 165Z" />
<glyph unicode="5" glyph-name="five" horiz-adv-x="367" d="M56 239T5 232L-11 237L32 456H292L281 403H81L58 291Q83 294 115 294Q187 294 224 262T261 175Q261 165 257 141Q242 62 184 28T48 -7Q20 -7 -12 -1T-72 16L-49 71Q8 52 50 52Q115 52 152 75T199 150Q202
164 202 175Q202 209 176 224T89 239Q56 239 5 232Z" />
<glyph unicode="6" glyph-name="six" horiz-adv-x="385" d="M209 284T244 255T280 171Q280 155 277 137Q266 77 220 35T101 -7Q30 -7 -4 33T-39 140Q-39 171 -33 202Q-8 328 73 391T281 455L280 400Q185 403 125 364T42 258Q91 284 154 284Q209 284 244 255ZM222
228T147 228Q106 228 78 218T21 187Q17 159 17 147Q17 100 40 76T105 51Q159 51 190 86T222 170Q222 228 147 228Z" />
<glyph unicode="7" glyph-name="seven" horiz-adv-x="341" d="M46 0H-21L218 401H-9L2 457H296V417L46 0Z" />
<glyph unicode="8" glyph-name="eight" horiz-adv-x="380" d="M224 465T255 443T287 377Q287 306 201 249Q231 235 250 207T270 145Q270 133 267 119Q254 60 207 25T87 -11Q19 -11 -17 22T-54 105Q-54 154 -21 193T61 253Q58 257 45 269T24 300T15 340Q15 352
18 365Q27 409 69 437T169 465Q224 465 255 443ZM130 409T104 389T77 339Q77 319 91 303T133 270Q168 288 193 309T225 358Q226 361 226 368Q226 389 208 399T164 409Q130 409 104 389ZM145 48T176 76T208 148Q208 204 126 224Q81 212 49 187T8 123Q7 119 7 110Q7
83 29 66T90 48Q145 48 176 76Z" />
<glyph unicode="9" glyph-name="nine" horiz-adv-x="387" d="M232 455T265 415T299 305Q299 270 292 236Q244 -7 -14 -7V48Q79 45 136 83T220 188Q170 164 112 164Q56 164 19 194T-18 284Q-18 327 2 366T63 430T165 455Q232 455 265 415ZM42 256T59 239T119 222Q158
222 185 232T239 262Q243 283 243 306Q243 351 222 374T161 398Q102 398 72 365T42 290Q42 256 59 239Z" />
<glyph unicode=":" glyph-name="colon" horiz-adv-x="234" d="M112 234T102 244T91 272Q91 292 104 306T138 320Q156 320 166 310T177 282Q177 262 164 248T130 234Q112 234 102 244ZM65 -6T55 4T44 32Q44 51 57 65T92 80Q110 80 120 70T130 44Q130 23 118 9T83
-6Q65 -6 55 4Z" />
<glyph unicode=";" glyph-name="semicolon" horiz-adv-x="238" d="M156 320T166 310T177 282Q177 262 164 248T130 234Q112 234 102 244T91 272Q91 292 104 306T138 320Q156 320 166 310ZM109 70T120 59T132 29Q132 -5 102 -42T31 -110L8 -90Q50 -34 62 -16Q39
-5 39 21Q39 41 53 55T90 70Q109 70 120 59Z" />
<glyph unicode="&lt;" glyph-name="less" horiz-adv-x="426" d="M378 104L107 240L378 377V439L40 272V208L378 42V104Z" />
<glyph unicode="=" glyph-name="equal" horiz-adv-x="522" d="M442 277V333H80V277H442ZM442 128V184H80V128H442Z" />
<glyph unicode="&gt;" glyph-name="greater" horiz-adv-x="428" d="M48 377L319 240L48 104V42L388 208V272L48 439V377Z" />
<glyph unicode="?" glyph-name="question" horiz-adv-x="427" d="M350 498T386 471T423 391Q423 378 420 361Q412 318 390 290T326 226Q287 196 272 182T244 147T225 90L162 94Q177 167 217 214Q232 228 268 256Q316 294 339 321T362 385Q362 440 285 440Q247
440 220 432T158 409L143 465Q182 481 216 489T292 498Q350 498 386 471ZM154 -40T146 -32T137 -8Q137 -1 138 3Q140 18 150 27T178 36Q195 36 204 28T213 4Q213 -15 202 -27T171 -40Q154 -40 146 -32Z" />
<glyph unicode="@" glyph-name="at" horiz-adv-x="802" d="M540 362Q495 381 450 381Q396 381 348 356T266 284T219 173Q214 146 214 127Q214 63 251 27T346 -10Q414 -10 473 43Q481 16 504 3T561 -10Q629 -10 676 41T745 164T768 293Q768 409 696 476T476 543Q337
543 238 479T88 312T38 96Q38 16 73 -41T168 -128T303 -158Q380 -158 452 -138L467 -83Q409 -102 342 -102Q237 -102 174 -51T110 103Q110 189 150 278T271 428T470 489Q584 489 641 438T699 291Q699 252 687 194T647 90T580 45Q535 45 535 89Q535 97 539 119L589
377H548L540 362ZM305 255T344 293T440 332Q481 332 513 316L471 85Q433 46 380 46Q333 46 310 71T287 143Q287 162 292 190Q305 255 344 293Z" />
<glyph unicode="A" glyph-name="A" horiz-adv-x="493" d="M274 550L-21 0H55L138 161H348L369 0H441L359 550H274ZM168 218L305 481L340 218H168Z" />
<glyph unicode="B" glyph-name="B" horiz-adv-x="504" d="M414 317T438 354T462 438Q462 488 428 519T333 550H137L30 0H207Q292 0 348 25T432 90T459 179Q459 229 434 255T363 294Q414 317 438 354ZM158 321L192 493H296Q395 493 395 430Q395 382 357 352T234
321H158ZM107 58L148 266H242Q307 266 348 246T389 178Q389 144 368 117T306 74T212 58H107Z" />
<glyph unicode="C" glyph-name="C" horiz-adv-x="518" d="M499 548T469 553T389 558Q296 558 220 516T101 397T57 223Q57 155 88 103T174 21T296 -9Q341 -9 376 -2T456 20L450 83Q407 70 378 64T318 57Q234 57 181 100T128 227Q124 290 153 353T243 457T388 498Q427
498 453 493T514 474L549 530Q499 548 469 553Z" />
<glyph unicode="D" glyph-name="D" horiz-adv-x="565" d="M340 0T412 53T515 178T545 315Q545 422 494 486T333 550H137L30 0H222Q340 0 412 53ZM313 493Q398 493 433 449T469 318Q469 258 447 199T372 99T232 58H107L192 493H313Z" />
<glyph unicode="E" glyph-name="E" horiz-adv-x="442" d="M363 58H107L146 256H382L393 313H157L192 494H448L459 550H137L30 0H352L363 58Z" />
<glyph unicode="F" glyph-name="F" horiz-adv-x="424" d="M457 550H137L30 0H96L146 256H377L388 313H157L192 494H446L457 550Z" />
<glyph unicode="G" glyph-name="G" horiz-adv-x="562" d="M485 32Q436 12 392 2T296 -9Q229 -9 175 20T89 102T57 223Q57 321 100 397T220 515T389 558Q439 558 469 553T549 530L514 474Q480 487 454 492T388 498Q303 498 243 457T154 353T128 227Q128 143 181
98T318 53Q373 53 431 71L462 237H307L318 291H537L485 32Z" />
<glyph unicode="H" glyph-name="H" horiz-adv-x="572" d="M156 307L203 550H137L30 0H96L144 247H450L402 0H468L575 550H509L462 307H156Z" />
<glyph unicode="I" glyph-name="I" horiz-adv-x="205" d="M98 0L205 550H140L33 0H98Z" />
<glyph unicode="J" glyph-name="J" horiz-adv-x="316" d="M179 144T164 114T123 69T53 55Q26 55 -2 62L-28 1Q3 -7 43 -7Q138 -7 186 36T251 167L325 550H260L192 200Q179 144 164 114Z" />
<glyph unicode="K" glyph-name="K" horiz-adv-x="487" d="M96 0L203 550H137L30 0H96ZM350 0H427L238 278L528 550H446L160 282L350 0Z" />
<glyph unicode="L" glyph-name="L" horiz-adv-x="400" d="M343 0L354 58H110L203 550H137L30 0H343Z" />
<glyph unicode="M" glyph-name="M" horiz-adv-x="671" d="M96 0L184 457L295 158H362L589 457L501 0H567L674 550H577L340 228L221 550H137L30 0H96Z" />
<glyph unicode="N" glyph-name="N" horiz-adv-x="585" d="M96 0L185 463L386 0H469L588 550H520L419 89L219 550H137L30 0H96Z" />
<glyph unicode="O" glyph-name="O" horiz-adv-x="606" d="M580 217T533 142T416 30T274 -7Q215 -7 166 18T88 96T58 223Q58 332 105 407T222 520T364 557Q422 557 471 531T550 453T580 326Q580 217 533 142ZM510 406T469 449T349 492Q289 492 238 457T157 361T127
227Q127 143 168 101T289 58Q349 58 400 93T480 188T510 322Q510 406 469 449Z" />
<glyph unicode="P" glyph-name="P" horiz-adv-x="465" d="M454 318T418 285T332 240T209 228Q165 228 142 230L95 0H29L136 550H302Q382 550 428 520T474 424Q474 403 470 383Q454 318 418 285ZM300 286T346 307T406 397Q408 405 408 419Q408 450 389 468T337
491Q324 494 265 494H191L149 289Q189 286 219 286Q300 286 346 307Z" />
<glyph unicode="Q" glyph-name="Q" horiz-adv-x="609" d="M580 250T556 190T491 87L548 21L501 -22L442 46Q403 20 360 7T274 -7Q215 -7 166 18T88 96T58 223Q58 332 105 407T222 520T364 557Q422 557 471 531T550 453T580 326Q580 250 556 190ZM349 58T400 93L304
204L353 245L447 137Q477 173 493 220T510 322Q510 406 469 449T349 492Q289 492 238 457T157 361T127 227Q127 143 168 101T289 58Q349 58 400 93Z" />
<glyph unicode="R" glyph-name="R" horiz-adv-x="495" d="M140 228L96 0H30L137 550H318Q394 550 434 517T475 420Q475 359 435 308T317 236L425 0H352L251 228H140ZM317 286T363 319T409 420Q409 455 391 471T345 490T266 494H192L150 286H215Q317 286 363 319Z" />
<glyph unicode="S" glyph-name="S" horiz-adv-x="463" d="M230 60T267 74T322 110T341 158Q341 190 316 208T242 249L218 259Q161 282 127 317T92 401Q92 478 152 520T305 562Q340 562 376 552T452 523L425 466Q353 497 309 497Q234 497 198 472T162 408Q162 377
189 354T257 311L279 302Q324 283 350 268T394 227T413 160Q413 118 385 79T301 16T172 -8Q130 -8 101 -1T29 23L9 30L41 92Q120 60 179 60Q230 60 267 74Z" />
<glyph unicode="T" glyph-name="T" horiz-adv-x="444" d="M250 494L154 0H220L316 494H494L505 550H79L68 494H250Z" />
<glyph unicode="U" glyph-name="U" horiz-adv-x="543" d="M145 -9T102 28T58 140Q58 170 66 212L132 550H197L127 192Q122 164 122 145Q122 97 150 73T240 49Q317 49 360 90T416 196L485 550H550L484 208Q463 98 404 45T236 -9Q145 -9 102 28Z" />
<glyph unicode="V" glyph-name="V" horiz-adv-x="480" d="M246 0L541 550H465L215 69L151 550H79L161 0H246Z" />
<glyph unicode="W" glyph-name="W" horiz-adv-x="739" d="M192 0L419 422L456 0H544L800 550H723L513 88L473 550H410L171 88L153 550H79L112 0H192Z" />
<glyph unicode="X" glyph-name="X" horiz-adv-x="483" d="M437 0L358 1L252 224L56 0L-28 1L223 285L96 551L172 550L272 342L456 550H537L302 281L437 0Z" />
<glyph unicode="Y" glyph-name="Y" horiz-adv-x="454" d="M515 550H437L249 324L152 550H79L204 254L155 0H221L269 249L515 550Z" />
<glyph unicode="Z" glyph-name="Z" horiz-adv-x="475" d="M400 494L8 43L-1 0H402L413 58H104L498 509L507 550H117L106 494H400Z" />
<glyph unicode="[" glyph-name="bracketleft" horiz-adv-x="305" d="M140 586H318L308 536H186L65 -89H187L177 -139H-1L140 586Z" />
<glyph unicode="\" glyph-name="backslash" horiz-adv-x="295" d="M177 -35H236L158 550H100L177 -35Z" />
<glyph unicode="]" glyph-name="bracketright" horiz-adv-x="304" d="M9 -89H131L252 536H130L140 586H318L177 -139H-1L9 -89Z" />
<glyph unicode="^" glyph-name="asciicircum" horiz-adv-x="397" d="M390 441L276 601L105 449L140 407L263 517L344 407L390 441Z" />
<glyph unicode="_" glyph-name="underscore" horiz-adv-x="452" d="M339 -83L350 -25H18L7 -83H339Z" />
<glyph unicode="`" glyph-name="grave" horiz-adv-x="193" d="M132 427L5 550L47 593L171 465L132 427Z" />
<glyph unicode="a" glyph-name="a" horiz-adv-x="393" d="M189 333T159 328T104 316L95 366Q164 388 223 388Q287 388 321 365T355 287Q355 266 351 246L303 0H255L249 34Q185 -10 125 -10Q78 -10 48 15T18 80Q18 131 52 165T132 211Q184 223 283 225Q291 259
291 279Q291 308 273 320T211 333Q189 333 159 328ZM198 42T256 88L275 178Q209 177 173 169Q133 161 111 145T82 98Q81 94 81 87Q81 66 97 54T136 42Q198 42 256 88Z" />
<glyph unicode="b" glyph-name="b" horiz-adv-x="439" d="M21 0L124 532H189L157 375Q196 392 251 392Q323 392 364 351T405 237Q405 212 399 183Q383 96 328 44T190 -8Q133 -8 86 28L68 0H21ZM243 47T281 83T334 197Q339 224 339 241Q339 287 315 313T241 339Q195
339 151 323L97 69Q117 57 134 52T177 47Q243 47 281 83Z" />
<glyph unicode="c" glyph-name="c" horiz-adv-x="366" d="M116 -9T75 29T34 133Q34 198 57 256T134 351T273 389Q322 389 370 367L348 321Q312 335 273 335Q183 335 142 279T100 148Q100 90 131 69T214 48Q252 48 291 62L303 12Q271 1 246 -4T191 -9Q116 -9 75 29Z" />
<glyph unicode="d" glyph-name="d" horiz-adv-x="439" d="M108 -8T70 31T32 137Q32 163 38 193Q56 287 113 339T259 392Q313 392 348 373L381 532H449L345 0H298L293 26Q234 -8 181 -8Q108 -8 70 31ZM224 47T246 53T294 71L342 325Q311 339 262 339Q199 339 158
298T104 187Q100 167 100 144Q100 99 123 73T196 47Q224 47 246 53Z" />
<glyph unicode="e" glyph-name="e" horiz-adv-x="402" d="M373 389T373 260Q373 247 369 213L364 180L359 172L97 170Q93 146 93 137Q93 46 215 46Q264 46 312 62L319 12Q257 -8 194 -8Q115 -8 74 29T32 135Q32 160 38 190Q56 279 113 334T244 389Q373 389 373
260ZM313 243T313 263Q313 298 297 318T249 338Q195 338 160 305T108 222L309 226Q313 243 313 263Z" />
<glyph unicode="f" glyph-name="f" horiz-adv-x="286" d="M247 503T225 484T193 417L186 384H313L303 333H177L112 0H47L112 333H55L65 384H120L128 425Q141 490 175 522T277 554Q317 554 369 538L353 492Q315 503 295 503Q247 503 225 484Z" />
<glyph unicode="g" glyph-name="g" horiz-adv-x="438" d="M231 -8T180 -8Q108 -8 71 35T34 145Q34 170 38 190Q50 256 83 300T160 367T253 389Q300 389 341 368L359 360L371 384H419L339 -20Q320 -117 264 -163T115 -210Q86 -210 55 -203T0 -184L23 -140Q74 -159
108 -159Q160 -159 192 -145T247 -92T284 17Q231 -8 180 -8ZM247 45T289 67L342 318Q303 337 259 337Q197 337 157 297T104 189Q100 170 100 149Q100 118 110 94T141 57Q165 45 197 45Q247 45 289 67Z" />
<glyph unicode="h" glyph-name="h" horiz-adv-x="428" d="M326 267T326 285Q326 314 311 326T259 339Q215 339 148 310L86 0H21L124 532H189L154 360Q226 394 286 394Q338 394 366 368T394 294Q394 283 390 259L340 0H274L322 248Q326 267 326 285Z" />
<glyph unicode="i" glyph-name="i" horiz-adv-x="181" d="M130 458T120 469T109 496Q109 512 122 526T155 541Q172 541 182 531T192 504Q192 487 179 473T147 458Q130 458 120 469ZM86 0H21L96 384H161L86 0Z" />
<glyph unicode="j" glyph-name="j" horiz-adv-x="180" d="M127 457T116 468T105 495Q105 514 119 527T151 541Q168 541 178 531T189 503Q189 484 175 471T143 457Q127 457 116 468ZM98 384H161L77 -52Q62 -125 35 -158T-53 -209L-72 -160Q-1 -129 12 -60L13 -53L98 384Z" />
<glyph unicode="k" glyph-name="k" horiz-adv-x="391" d="M86 0H21L124 532H189L86 0ZM211 207L339 0H267L134 212L315 384H390L211 207Z" />
<glyph unicode="l" glyph-name="l" horiz-adv-x="224" d="M154 51T177 58L184 9Q181 8 159 0T105 -9Q72 -9 53 10T33 63Q33 77 35 85L124 533H187L104 104Q100 86 100 78Q100 65 108 58T140 51Q154 51 177 58Z" />
<glyph unicode="m" glyph-name="m" horiz-adv-x="634" d="M530 270T530 280Q530 338 472 338Q451 338 427 329T370 300L364 258L314 0H249L297 246Q301 270 301 279Q301 338 242 338Q206 338 146 308L84 0H19L93 384H137L144 353Q177 373 212 386Q234 390 266
390Q300 390 323 376T357 340Q395 365 427 377T495 390Q546 390 572 364T599 292Q599 282 595 258L545 0H478L526 246Q530 270 530 280Z" />
<glyph unicode="n" glyph-name="n" horiz-adv-x="427" d="M325 265T325 282Q325 310 310 322T259 335Q210 335 145 307L84 0H19L93 384H137L144 353Q218 390 285 390Q338 390 365 365T392 293Q392 282 388 258L338 0H273L321 246Q325 265 325 282Z" />
<glyph unicode="o" glyph-name="o" horiz-adv-x="447" d="M113 -9T73 31T33 140Q33 167 39 195Q57 285 114 337T259 389Q334 389 374 350T414 242Q414 216 408 186Q390 98 331 45T187 -9Q113 -9 73 31ZM199 338T158 295T104 185Q100 166 100 144Q100 99 123 72T192
44Q249 44 290 86T344 195Q348 214 348 234Q348 281 325 309T257 338Q199 338 158 295Z" />
<glyph unicode="p" glyph-name="p" horiz-adv-x="440" d="M95 384H140L147 356Q200 389 259 389Q322 389 364 349T407 237Q407 212 403 191Q385 98 325 44T180 -10Q132 -10 89 10L45 -208H-20L95 384ZM213 335T193 330T148 311L95 59Q128 42 175 42Q237 42 279
84T334 194Q338 214 338 237Q338 283 314 309T241 335Q213 335 193 330Z" />
<glyph unicode="q" glyph-name="q" horiz-adv-x="441" d="M119 -10T77 34T35 152Q35 173 40 201Q58 294 115 341T252 389Q308 389 354 354L372 383H422L307 -208H239L283 8Q239 -10 190 -10Q119 -10 77 34ZM325 325T307 330T262 335Q200 335 159 294T104 184Q100
165 100 144Q100 97 125 70T198 42Q245 42 289 61L342 313Q325 325 307 330Z" />
<glyph unicode="r" glyph-name="r" horiz-adv-x="292" d="M280 389T293 386T319 377L288 321Q267 332 236 332Q194 332 145 303L84 0H19L94 384H140L147 353Q202 389 257 389Q280 389 293 386Z" />
<glyph unicode="s" glyph-name="s" horiz-adv-x="369" d="M180 46T209 61T243 104Q244 107 244 112Q244 127 229 137T168 168L131 185Q101 199 82 217T62 270Q62 277 64 291Q74 343 122 366T234 389Q294 389 343 366L320 317Q280 335 238 335Q190 335 159 319T127
274Q127 258 141 248T190 222L224 206Q268 188 287 167T307 116Q307 104 304 89Q296 49 253 20T146 -9Q74 -9 3 21L28 71Q95 46 144 46Q180 46 209 61Z" />
<glyph unicode="t" glyph-name="t" horiz-adv-x="308" d="M115 -8T94 13T72 76Q72 94 77 121L118 330H43L54 384H129L147 478L213 483L194 384H300L289 330H183L145 121Q141 101 141 84Q141 65 150 56T185 47Q218 47 248 54L255 8Q210 -8 163 -8Q115 -8 94 13Z" />
<glyph unicode="u" glyph-name="u" horiz-adv-x="427" d="M102 116T102 99Q102 71 117 59T169 46Q216 46 281 74L343 384H408L334 0H290L282 27Q204 -10 142 -10Q90 -10 63 16T35 87Q35 106 39 123L89 384H154L106 135Q102 116 102 99Z" />
<glyph unicode="v" glyph-name="v" horiz-adv-x="400" d="M127 0L59 384H125L173 83V63L180 83L345 384H415L198 0H127Z" />
<glyph unicode="w" glyph-name="w" horiz-adv-x="643" d="M162 77L161 62L165 77L322 384H386L425 77V62L430 77L590 384H658L456 0H376L339 297L188 0H114L59 384H121L162 77Z" />
<glyph unicode="x" glyph-name="x" horiz-adv-x="409" d="M338 0H266L194 139L67 1H-10L166 193L65 385H134L210 241L341 384H419L239 188L338 0Z" />
<glyph unicode="y" glyph-name="y" horiz-adv-x="415" d="M94 -206H20L132 -20L59 384H123L179 66L359 384H428L94 -206Z" />
<glyph unicode="z" glyph-name="z" horiz-adv-x="386" d="M369 350L104 49H321L311 0H14L15 33L279 333H74L84 384H370L369 350Z" />
<glyph unicode="{" glyph-name="braceleft" horiz-adv-x="311" d="M66 183T88 159T111 100Q111 94 109 82L94 7Q90 -10 90 -30Q90 -85 122 -117T200 -158L228 -105Q188 -95 170 -77T151 -17Q151 9 156 33L166 85Q169 100 169 114Q169 169 124 206Q159 229 184
261T218 337L229 398Q239 445 255 470T293 507T351 526L350 586Q283 577 237 539T174 417L160 342Q152 303 120 275T48 240L34 188Q66 183 88 159Z" />
<glyph unicode="|" glyph-name="bar" horiz-adv-x="300" d="M180 -179H120V622H180V-179Z" />
<glyph unicode="}" glyph-name="braceright" horiz-adv-x="310" d="M253 245T231 269T208 328Q208 334 210 346L225 421Q229 438 229 458Q229 513 197 545T119 586L91 533Q131 523 149 505T168 445Q168 419 163 395L153 343Q150 328 150 314Q150 260 195 222Q160
199 135 167T101 91L90 30Q80 -17 64 -42T26 -79T-32 -98L-31 -158Q36 -149 82 -111T145 11L159 86Q167 125 199 153T271 188L285 240Q253 245 231 269Z" />
<glyph unicode="~" glyph-name="asciitilde" horiz-adv-x="378" d="M216 536T227 530T257 510Q280 491 293 491Q310 491 321 503T344 538L387 519Q373 484 348 464T289 443Q270 443 258 449T229 469Q221 476 213 481T198 486Q183 486 172 474T150 440L107 459Q122
495 147 515T202 536Q216 536 227 530Z" />
<glyph unicode="&#xa0;" glyph-name="uni00A0" horiz-adv-x="220" />
<glyph unicode="&#xa1;" glyph-name="exclamdown" horiz-adv-x="191" d="M182 483T191 474T201 450Q201 431 190 419T159 407Q142 407 134 415T125 439Q125 446 126 450Q128 465 138 474T166 483Q182 483 191 474ZM169 354L100 -49H33L120 354H169Z" />
<glyph unicode="&#xa2;" glyph-name="cent" horiz-adv-x="405" d="M212 385T171 329T129 198Q129 140 160 119T243 98Q281 98 320 112L332 62Q300 51 275 46T220 41H216L200 -50H152L169 46Q118 58 91 94T63 182Q63 275 109 348T256 436L272 514H320L305 439Q352
439 399 417L377 371Q341 385 302 385Q212 385 171 329Z" />
<glyph unicode="&#xa3;" glyph-name="sterling" horiz-adv-x="460" d="M373 0L383 52H174L204 206H391L401 259H214L223 304Q233 363 271 387T362 412Q396 412 428 405L460 453Q411 467 375 467Q274 467 223 420T153 274L150 259H82L72 206H140L110 52H33L23 0H373Z" />
<glyph unicode="&#xa4;" glyph-name="currency" horiz-adv-x="476" d="M369 170T345 139L398 76L356 38L301 102Q266 83 223 83Q183 83 155 102L81 39L45 80L118 145Q109 166 109 192Q109 207 112 222Q119 262 146 293L88 360L132 396L190 329Q227 350 267 350Q306
350 333 335L401 395L437 352L370 294Q380 274 380 245Q380 229 377 212Q369 170 345 139ZM166 171T183 156T228 140Q263 140 290 163T325 223Q327 233 327 239Q327 264 311 279T266 295Q226 295 196 267T166 197Q166 171 183 156Z" />
<glyph unicode="&#xa5;" glyph-name="yen" horiz-adv-x="449" d="M450 456H380L237 279L162 456H101L194 234H96L86 185H187L175 121H74L64 74H165L151 0H217L231 74H335L344 121H241L253 185H356L366 234H265L450 456Z" />
<glyph unicode="&#xa6;" glyph-name="brokenbar" horiz-adv-x="300" d="M180 275V622H120V275H180ZM180 -178V169H120V-178H180Z" />
<glyph unicode="&#xa7;" glyph-name="section" horiz-adv-x="407" d="M249 495T218 479T186 434Q186 418 200 408T247 383Q275 370 283 366Q328 344 347 325T366 275Q366 264 363 249Q358 226 342 206T300 173Q326 151 326 116Q326 104 323 89Q315 48 272 20T165
-9Q93 -9 22 21L47 71Q114 46 163 46Q202 46 232 62T262 109Q262 126 248 136T185 169L150 185Q120 199 101 217T81 270Q81 339 148 370Q121 395 121 430Q121 443 123 451Q133 503 181 526T293 549Q353 549 402 526L379 477Q338 495 297 495Q249 495 218 479ZM302
286T287 296T218 332Q185 326 166 311T146 274Q146 256 162 244T217 217L237 208Q266 213 284 229T302 268Q302 286 287 296Z" />
<glyph unicode="&#xa8;" glyph-name="dieresis" horiz-adv-x="212" d="M10 465T1 474T-9 498Q-9 504 -8 507Q-6 520 6 529T31 539Q48 539 57 527T64 497Q61 484 49 475T24 465Q10 465 1 474ZM148 465T139 474T129 498Q129 504 130 507Q132 520 144 529T169 539Q186
539 195 527T202 497Q199 484 187 475T162 465Q148 465 139 474Z" />
<glyph unicode="&#xa9;" glyph-name="copyright" horiz-adv-x="684" d="M617 293T596 343T536 431Q498 466 448 485T340 505Q284 505 235 486T148 431Q110 394 89 344T67 234Q67 175 88 125T148 38Q185 2 234 -17T340 -37Q397 -37 447 -18T536 38Q574 74 595 124T617
234Q617 293 596 343ZM566 188T549 148T501 78Q470 48 429 32T343 16Q296 16 255 32T184 78Q153 108 136 148T119 234Q119 280 136 320T184 392Q214 422 255 438T343 454Q388 454 429 438T501 392Q532 361 549 321T566 234Q566 188 549 148ZM391 93T430 109L415
151Q388 141 367 141Q318 141 297 166T275 239Q275 330 361 330Q389 330 418 320L433 362Q394 378 359 378Q221 378 221 230Q221 166 256 130T353 93Q391 93 430 109Z" />
<glyph unicode="&#xaa;" glyph-name="ordfeminine" horiz-adv-x="265" d="M207 505T218 495T230 466Q230 459 228 445Q139 448 107 428T75 363Q75 338 92 322T136 306Q174 306 211 334L216 312H248L272 448Q274 464 274 470Q274 506 253 525T193 544Q158 544 115
529V493Q156 505 180 505Q207 505 218 495ZM137 344T130 352T122 374Q122 381 123 384Q126 398 144 404T188 411H221L215 368Q187 344 151 344Q137 344 130 352Z" />
<glyph unicode="&#xab;" glyph-name="guillemotleft" horiz-adv-x="361" d="M180 100H246L177 235L304 384H235L109 241L180 100ZM324 100H390L321 235L448 384H379L253 241L324 100Z" />
<glyph unicode="&#xac;" glyph-name="logicalnot" horiz-adv-x="482" d="M377 190V72H427V238H55V190H377Z" />
<glyph unicode="&#xad;" glyph-name="softhyphen" horiz-adv-x="346" d="M283 190H37L46 237H292L283 190Z" />
<glyph unicode="&#xae;" glyph-name="registered" horiz-adv-x="551" d="M481 449T466 486T421 551Q393 577 356 591T276 605Q232 605 195 591T130 551Q101 523 86 486T70 405Q70 360 85 323T130 259Q157 232 194 218T276 204Q319 204 356 218T421 259Q450 286
465 323T481 405Q481 449 466 486ZM437 330T393 288T276 245Q203 245 159 287T115 405Q115 477 160 522Q203 563 276 563Q349 563 392 522Q437 477 437 405Q437 330 393 288ZM359 477T339 495T288 513H203V300H239V381H283L321 300H360L317 388Q359 404 359 448Q359
477 339 495ZM325 428T311 419T277 410H239V480H287Q305 480 315 471T325 447Q325 428 311 419Z" />
<glyph unicode="&#xaf;" glyph-name="overscore" horiz-adv-x="217" d="M196 466H-11L-1 518H206L196 466Z" />
<glyph unicode="&#xb0;" glyph-name="degree" horiz-adv-x="234" d="M170 276T199 295T242 343T257 398Q257 437 236 459T177 482Q136 482 107 463T64 415T49 360Q49 321 70 299T129 276Q170 276 199 295ZM98 324T98 365Q98 391 119 412T170 434Q209 434 209 393Q209
367 188 346T137 324Q98 324 98 365Z" />
<glyph unicode="&#xb1;" glyph-name="plusminus" horiz-adv-x="452" d="M392 244H253V103H197V244H60V300H197V435H253V300H392V244ZM392 56V0H60V56H392Z" />
<glyph unicode="&#xb2;" glyph-name="twosuperior" horiz-adv-x="299" d="M99 538T130 538Q179 538 179 500Q179 494 177 484Q173 464 152 440T90 382L1 307V275H198L208 321H90Q168 386 200 427T233 504Q233 587 137 587Q113 587 92 582T41 565L44 517Q99 538 130 538Z" />
<glyph unicode="&#xb3;" glyph-name="threesuperior" horiz-adv-x="292" d="M113 590T96 587T47 575L55 531Q104 544 127 544Q174 544 174 507Q174 452 90 452H81L73 410H82Q121 410 140 401T159 370Q159 312 80 312Q67 312 50 317T11 329L-12 288Q35 267 77 267Q148
267 178 296T209 369Q209 410 173 432Q196 450 209 472T222 520Q222 552 200 571T139 590Q113 590 96 587Z" />
<glyph unicode="&#xb4;" glyph-name="acute" horiz-adv-x="193" d="M188 550L15 427L-14 468L156 596L188 550Z" />
<glyph unicode="&#xb5;" glyph-name="uni00B5" horiz-adv-x="430" d="M53 -159L86 19Q102 5 119 -2T162 -10Q205 -10 283 28L292 0H337L412 384H349L291 76Q219 44 189 44Q148 44 130 63T111 119Q111 138 116 166L159 384H96L-10 -159H53Z" />
<glyph unicode="&#xb6;" glyph-name="paragraph" horiz-adv-x="494" d="M219 586T156 547T76 424Q73 406 73 391Q73 335 112 302T215 266L165 0H230L333 528H426L324 0H388L503 586H306Q219 586 156 547Z" />
<glyph unicode="&#xb7;" glyph-name="middot" horiz-adv-x="230" d="M109 235T96 247T83 279Q83 301 100 317T139 334Q158 334 170 322T183 289Q183 268 166 252T128 235Q109 235 96 247Z" />
<glyph unicode="&#xb8;" glyph-name="cedilla" horiz-adv-x="194" d="M-16 -161T-6 -153T8 -126Q12 -103 -24 -95L-79 -81L-38 11H13L-15 -49Q21 -59 39 -75T57 -120Q57 -159 32 -183T-43 -207Q-63 -207 -77 -204T-110 -194T-137 -185L-116 -142Q-78 -155 -63
-158T-35 -161Q-16 -161 -6 -153Z" />
<glyph unicode="&#xb9;" glyph-name="onesuperior" horiz-adv-x="179" d="M23 560L34 520L94 535L47 276H97L157 587H113L23 560Z" />
<glyph unicode="&#xba;" glyph-name="ordmasculine" horiz-adv-x="305" d="M248 307T280 350T312 452Q312 491 287 517T220 543Q148 543 116 500T84 398Q84 359 109 333T176 307Q248 307 280 350ZM235 506T249 490T264 445Q264 404 245 374T186 344Q161 344 147
360T131 406Q132 443 152 474T209 506Q235 506 249 490Z" />
<glyph unicode="&#xbb;" glyph-name="guillemotright" horiz-adv-x="358" d="M193 246L68 100H139L262 241L193 384H128L193 246ZM336 246L211 100H282L405 241L336 384H271L336 246Z" />
<glyph unicode="&#xbc;" glyph-name="onequarter" horiz-adv-x="674" d="M61 0L527 550H461L-6 0H61ZM41 523L52 483L112 498L65 239H115L175 550H131L41 523ZM279 107L275 66H420L407 0H456L469 66H519L528 113H480L518 309H457L279 107ZM457 240L429 113H344L457 240Z" />
<glyph unicode="&#xbd;" glyph-name="onehalf" horiz-adv-x="690" d="M61 0L527 550H461L-6 0H61ZM41 523L52 483L112 498L65 239H115L175 550H131L41 523ZM433 263T464 263Q513 263 513 225Q513 219 511 209Q507 189 486 165T424 107L335 32V0H532L542 46H424Q502
111 534 152T567 229Q567 312 471 312Q447 312 426 307T375 290L378 242Q433 263 464 263Z" />
<glyph unicode="&#xbe;" glyph-name="threequarters" horiz-adv-x="721" d="M125 556T108 553T59 541L67 497Q116 510 139 510Q186 510 186 473Q186 418 102 418H93L85 376H94Q133 376 152 367T171 336Q171 278 92 278Q79 278 62 283T23 295L0 254Q47 233 89 233Q160
233 190 262T221 335Q221 376 185 398Q208 416 221 438T234 486Q234 518 212 537T151 556Q125 556 108 553ZM110 0L576 550H510L43 0H110ZM328 107L324 66H469L456 0H505L518 66H568L577 113H529L567 309H506L328 107ZM506 240L478 113H393L506 240Z" />
<glyph unicode="&#xbf;" glyph-name="questiondown" horiz-adv-x="398" d="M315 483T324 474T333 450Q333 443 332 440Q329 425 319 416T291 407Q274 407 266 415T257 439Q257 446 258 450Q260 465 271 474T298 483Q315 483 324 474ZM119 -55T83 -28T46 52Q46
66 49 82Q57 125 79 153T143 217Q149 222 179 245T223 293T245 353L307 349Q292 275 253 229Q228 207 203 188Q155 152 131 124T107 58Q107 3 185 3Q222 3 250 11T312 34L326 -22Q289 -37 254 -46T177 -55Q119 -55 83 -28Z" />
<glyph unicode="&#xc0;" glyph-name="Agrave" horiz-adv-x="493" d="M274 550L-21 0H55L138 161H348L369 0H441L359 550H274ZM168 218L305 481L340 218H168ZM439 627L411 586L253 652L287 705L439 627Z" />
<glyph unicode="&#xc1;" glyph-name="Aacute" horiz-adv-x="493" d="M274 550L-21 0H55L138 161H348L369 0H441L359 550H274ZM168 218L305 481L340 218H168ZM257 586L242 627L422 705L439 652L257 586Z" />
<glyph unicode="&#xc2;" glyph-name="Acircumflex" horiz-adv-x="493" d="M274 550L-21 0H55L138 161H348L369 0H441L359 550H274ZM168 218L305 481L340 218H168ZM421 588L338 658L234 589L205 628L342 720L456 622L421 588Z" />
<glyph unicode="&#xc3;" glyph-name="Atilde" horiz-adv-x="493" d="M274 550L-21 0H55L138 161H348L369 0H441L359 550H274ZM168 218L305 481L340 218H168ZM310 687T321 681T350 662Q374 642 388 642Q404 642 415 654T438 689L482 671Q467 635 443 615T386 594Q368
594 355 600T324 621Q316 627 308 632T293 637Q278 637 267 626T244 591L201 609Q217 646 241 666T295 687Q310 687 321 681Z" />
<glyph unicode="&#xc4;" glyph-name="Adieresis" horiz-adv-x="493" d="M274 550L-21 0H55L138 161H348L369 0H441L359 550H274ZM168 218L305 481L340 218H168ZM245 615T235 625T225 649Q225 654 226 657Q228 670 240 679T265 689Q280 689 289 679T299 654Q299
640 287 628T259 615Q245 615 235 625ZM403 615T393 625T383 649Q383 654 384 657Q386 670 398 679T423 689Q438 689 447 679T457 654Q457 640 445 628T417 615Q403 615 393 625Z" />
<glyph unicode="&#xc5;" glyph-name="Aring" horiz-adv-x="492" d="M347 161H137L54 0H-22L267 539Q248 551 237 571T225 615Q225 643 241 669T285 711T343 727Q382 727 407 702T432 641Q432 609 413 582T360 539L440 0H368L347 161ZM268 618T268 610Q268 592
279 581T311 570Q337 570 359 588T386 632Q387 635 387 642Q387 659 374 671T342 684Q315 684 295 667T269 622Q268 618 268 610ZM167 218H339L304 481L167 218Z" />
<glyph unicode="&#xc6;" glyph-name="AE" horiz-adv-x="687" d="M454 494L419 313H638L627 256H408L369 58H609L598 0H297L328 161H137L45 0H-21L301 550H705L694 494H454ZM331 494L171 218H339L393 494H331Z" />
<glyph unicode="&#xc7;" glyph-name="Ccedilla" horiz-adv-x="518" d="M303 498T243 457T154 353T128 227Q128 143 181 100T318 57Q349 57 378 63T450 83L456 20Q412 5 377 -2T296 -9H292L271 -52Q311 -63 331 -79T351 -129Q351 -141 348 -154Q342 -185 313 -205T245
-226Q224 -226 206 -222T169 -213T144 -205L167 -153Q175 -156 191 -161T220 -169T244 -172Q287 -172 292 -141Q298 -114 259 -105L194 -91L234 -2Q155 16 106 77T57 223Q57 321 100 397T220 515T389 558Q439 558 469 553T549 530L514 474Q480 487 454 492T388
498Q303 498 243 457Z" />
<glyph unicode="&#xc8;" glyph-name="Egrave" horiz-adv-x="442" d="M363 58H107L146 256H382L393 313H157L192 494H448L459 550H137L30 0H352L363 58ZM415 627L387 586L229 652L263 705L415 627Z" />
<glyph unicode="&#xc9;" glyph-name="Eacute" horiz-adv-x="442" d="M363 58H107L146 256H382L393 313H157L192 494H448L459 550H137L30 0H352L363 58ZM233 586L218 627L398 705L415 652L233 586Z" />
<glyph unicode="&#xca;" glyph-name="Ecircumflex" horiz-adv-x="442" d="M363 58H107L146 256H382L393 313H157L192 494H448L459 550H137L30 0H352L363 58ZM397 588L314 658L210 589L181 628L318 720L432 622L397 588Z" />
<glyph unicode="&#xcb;" glyph-name="Edieresis" horiz-adv-x="442" d="M363 58H107L146 256H382L393 313H157L192 494H448L459 550H137L30 0H352L363 58ZM221 615T211 625T201 649Q201 654 202 657Q204 670 216 679T241 689Q256 689 265 679T275 654Q275 640
263 628T235 615Q221 615 211 625ZM379 615T369 625T359 649Q359 654 360 657Q362 670 374 679T399 689Q414 689 423 679T433 654Q433 640 421 628T393 615Q379 615 369 625Z" />
<glyph unicode="&#xcc;" glyph-name="Igrave" horiz-adv-x="205" d="M98 0L205 550H140L33 0H98ZM289 627L261 586L103 652L137 705L289 627Z" />
<glyph unicode="&#xcd;" glyph-name="Iacute" horiz-adv-x="205" d="M98 0L205 550H140L33 0H98ZM107 586L92 627L272 705L289 652L107 586Z" />
<glyph unicode="&#xce;" glyph-name="Icircumflex" horiz-adv-x="205" d="M98 0L205 550H140L33 0H98ZM271 588L188 658L84 589L55 628L192 720L306 622L271 588Z" />
<glyph unicode="&#xcf;" glyph-name="Idieresis" horiz-adv-x="205" d="M98 0L205 550H140L33 0H98ZM95 615T85 625T75 649Q75 654 76 657Q78 670 90 679T115 689Q130 689 139 679T149 654Q149 640 137 628T109 615Q95 615 85 625ZM253 615T243 625T233 649Q233
654 234 657Q236 670 248 679T273 689Q288 689 297 679T307 654Q307 640 295 628T267 615Q253 615 243 625Z" />
<glyph unicode="&#xd0;" glyph-name="Eth" horiz-adv-x="594" d="M478 550T529 486T581 315Q581 251 551 179T449 53T258 0H66L116 256H26L36 308H126L173 550H369Q478 550 529 486ZM354 58T407 98T483 198T505 318Q505 404 470 448T349 493H228L192 308H342L331
256H182L143 58H268Q354 58 407 98Z" />
<glyph unicode="&#xd1;" glyph-name="Ntilde" horiz-adv-x="585" d="M96 0L185 463L386 0H469L588 550H520L419 89L219 550H137L30 0H96ZM358 687T369 681T398 662Q422 642 436 642Q452 642 463 654T486 689L530 671Q515 635 491 615T434 594Q416 594 403 600T372
621Q364 627 356 632T341 637Q326 637 315 626T292 591L249 609Q265 646 289 666T343 687Q358 687 369 681Z" />
<glyph unicode="&#xd2;" glyph-name="Ograve" horiz-adv-x="606" d="M580 217T533 142T416 30T274 -7Q215 -7 166 18T88 96T58 223Q58 332 105 407T222 520T364 557Q422 557 471 531T550 453T580 326Q580 217 533 142ZM510 406T469 449T349 492Q289 492 238 457T157
361T127 227Q127 143 168 101T289 58Q349 58 400 93T480 188T510 322Q510 406 469 449ZM481 627L453 586L295 652L329 705L481 627Z" />
<glyph unicode="&#xd3;" glyph-name="Oacute" horiz-adv-x="606" d="M580 217T533 142T416 30T274 -7Q215 -7 166 18T88 96T58 223Q58 332 105 407T222 520T364 557Q422 557 471 531T550 453T580 326Q580 217 533 142ZM510 406T469 449T349 492Q289 492 238 457T157
361T127 227Q127 143 168 101T289 58Q349 58 400 93T480 188T510 322Q510 406 469 449ZM299 586L284 627L464 705L481 652L299 586Z" />
<glyph unicode="&#xd4;" glyph-name="Ocircumflex" horiz-adv-x="606" d="M580 217T533 142T416 30T274 -7Q215 -7 166 18T88 96T58 223Q58 332 105 407T222 520T364 557Q422 557 471 531T550 453T580 326Q580 217 533 142ZM510 406T469 449T349 492Q289 492 238
457T157 361T127 227Q127 143 168 101T289 58Q349 58 400 93T480 188T510 322Q510 406 469 449ZM463 588L380 658L276 589L247 628L384 720L498 622L463 588Z" />
<glyph unicode="&#xd5;" glyph-name="Otilde" horiz-adv-x="606" d="M580 217T533 142T416 30T274 -7Q215 -7 166 18T88 96T58 223Q58 332 105 407T222 520T364 557Q422 557 471 531T550 453T580 326Q580 217 533 142ZM510 406T469 449T349 492Q289 492 238 457T157
361T127 227Q127 143 168 101T289 58Q349 58 400 93T480 188T510 322Q510 406 469 449ZM352 687T363 681T392 662Q416 642 430 642Q446 642 457 654T480 689L524 671Q509 635 485 615T428 594Q410 594 397 600T366 621Q358 627 350 632T335 637Q320 637 309 626T286
591L243 609Q259 646 283 666T337 687Q352 687 363 681Z" />
<glyph unicode="&#xd6;" glyph-name="Odieresis" horiz-adv-x="606" d="M580 217T533 142T416 30T274 -7Q215 -7 166 18T88 96T58 223Q58 332 105 407T222 520T364 557Q422 557 471 531T550 453T580 326Q580 217 533 142ZM510 406T469 449T349 492Q289 492 238
457T157 361T127 227Q127 143 168 101T289 58Q349 58 400 93T480 188T510 322Q510 406 469 449ZM287 615T277 625T267 649Q267 654 268 657Q270 670 282 679T307 689Q322 689 331 679T341 654Q341 640 329 628T301 615Q287 615 277 625ZM445 615T435 625T425 649Q425
654 426 657Q428 670 440 679T465 689Q480 689 489 679T499 654Q499 640 487 628T459 615Q445 615 435 625Z" />
<glyph unicode="&#xd7;" glyph-name="multiply" horiz-adv-x="436" d="M356 317L315 356L220 260L123 355L81 312L175 217L80 120L119 80L215 177L312 80L355 123L259 220L356 317Z" />
<glyph unicode="&#xd8;" glyph-name="Oslash" horiz-adv-x="647" d="M601 386T601 326Q601 217 554 142T437 30T295 -7Q245 -7 202 11T128 67L36 -8L0 37L99 117Q79 162 79 223Q79 332 126 407T243 520T385 557Q434 557 478 538T552 482L644 556L679 511L581 432Q601
386 601 326ZM148 192T156 162L499 439Q458 492 370 492Q310 492 259 457T178 361T148 227Q148 192 156 162ZM531 356T523 386L181 109Q222 58 310 58Q370 58 421 93T501 188T531 322Q531 356 523 386Z" />
<glyph unicode="&#xd9;" glyph-name="Ugrave" horiz-adv-x="543" d="M145 -9T102 28T58 140Q58 170 66 212L132 550H197L127 192Q122 164 122 145Q122 97 150 73T240 49Q317 49 360 90T416 196L485 550H550L484 208Q463 98 404 45T236 -9Q145 -9 102 28ZM442 627L414
586L256 652L290 705L442 627Z" />
<glyph unicode="&#xda;" glyph-name="Uacute" horiz-adv-x="543" d="M145 -9T102 28T58 140Q58 170 66 212L132 550H197L127 192Q122 164 122 145Q122 97 150 73T240 49Q317 49 360 90T416 196L485 550H550L484 208Q463 98 404 45T236 -9Q145 -9 102 28ZM260 586L245
627L425 705L442 652L260 586Z" />
<glyph unicode="&#xdb;" glyph-name="Ucircumflex" horiz-adv-x="543" d="M145 -9T102 28T58 140Q58 170 66 212L132 550H197L127 192Q122 164 122 145Q122 97 150 73T240 49Q317 49 360 90T416 196L485 550H550L484 208Q463 98 404 45T236 -9Q145 -9 102 28ZM424
588L341 658L237 589L208 628L345 720L459 622L424 588Z" />
<glyph unicode="&#xdc;" glyph-name="Udieresis" horiz-adv-x="543" d="M145 -9T102 28T58 140Q58 170 66 212L132 550H197L127 192Q122 164 122 145Q122 97 150 73T240 49Q317 49 360 90T416 196L485 550H550L484 208Q463 98 404 45T236 -9Q145 -9 102 28ZM248
615T238 625T228 649Q228 654 229 657Q231 670 243 679T268 689Q283 689 292 679T302 654Q302 640 290 628T262 615Q248 615 238 625ZM406 615T396 625T386 649Q386 654 387 657Q389 670 401 679T426 689Q441 689 450 679T460 654Q460 640 448 628T420 615Q406
615 396 625Z" />
<glyph unicode="&#xdd;" glyph-name="Yacute" horiz-adv-x="454" d="M515 550H437L249 324L152 550H79L204 254L155 0H221L269 249L515 550ZM227 586L212 627L392 705L409 652L227 586Z" />
<glyph unicode="&#xde;" glyph-name="Thorn" horiz-adv-x="469" d="M363 450T410 418T457 323Q457 304 453 287Q435 194 369 160T192 126Q159 126 123 129L96 0H30L137 550H203L181 445Q246 450 277 450Q363 450 410 418ZM391 311T391 318Q391 358 356 374T257
390Q236 390 174 388L131 188Q161 185 208 185Q289 185 332 209T389 297Q391 311 391 318Z" />
<glyph unicode="&#xdf;" glyph-name="germandbls" horiz-adv-x="441" d="M112 469T160 511T279 554Q311 554 337 538T377 496T392 441Q392 412 375 386T328 340Q266 294 259 272Q257 267 257 260Q257 250 265 244T295 228L320 218Q404 187 404 117Q404 101 402
93Q391 41 354 16T259 -10Q202 -10 142 10L157 53Q220 42 247 42Q285 42 308 56T338 105Q339 109 339 116Q339 135 327 145T289 168L269 177Q234 193 214 210T194 258Q194 263 196 277Q201 301 218 319T267 361Q295 382 309 396T327 429Q328 433 328 440Q328 464
310 480T268 497Q229 497 200 469T161 394L84 0H21L98 399Q112 469 160 511Z" />
<glyph unicode="&#xe0;" glyph-name="agrave" horiz-adv-x="393" d="M189 333T159 328T104 316L95 366Q164 388 223 388Q287 388 321 365T355 287Q355 266 351 246L303 0H255L249 34Q185 -10 125 -10Q78 -10 48 15T18 80Q18 131 52 165T132 211Q184 223 283 225Q291
259 291 279Q291 308 273 320T211 333Q189 333 159 328ZM198 42T256 88L275 178Q209 177 173 169Q133 161 111 145T82 98Q81 94 81 87Q81 66 97 54T136 42Q198 42 256 88ZM285 427L158 550L200 593L324 465L285 427Z" />
<glyph unicode="&#xe1;" glyph-name="aacute" horiz-adv-x="393" d="M189 333T159 328T104 316L95 366Q164 388 223 388Q287 388 321 365T355 287Q355 266 351 246L303 0H255L249 34Q185 -10 125 -10Q78 -10 48 15T18 80Q18 131 52 165T132 211Q184 223 283 225Q291
259 291 279Q291 308 273 320T211 333Q189 333 159 328ZM198 42T256 88L275 178Q209 177 173 169Q133 161 111 145T82 98Q81 94 81 87Q81 66 97 54T136 42Q198 42 256 88ZM341 550L168 427L139 468L309 596L341 550Z" />
<glyph unicode="&#xe2;" glyph-name="acircumflex" horiz-adv-x="393" d="M189 333T159 328T104 316L95 366Q164 388 223 388Q287 388 321 365T355 287Q355 266 351 246L303 0H255L249 34Q185 -10 125 -10Q78 -10 48 15T18 80Q18 131 52 165T132 211Q184 223 283
225Q291 259 291 279Q291 308 273 320T211 333Q189 333 159 328ZM198 42T256 88L275 178Q209 177 173 169Q133 161 111 145T82 98Q81 94 81 87Q81 66 97 54T136 42Q198 42 256 88ZM324 432L257 515L159 433L125 470L264 592L363 466L324 432Z" />
<glyph unicode="&#xe3;" glyph-name="atilde" horiz-adv-x="393" d="M189 333T159 328T104 316L95 366Q164 388 223 388Q287 388 321 365T355 287Q355 266 351 246L303 0H255L249 34Q185 -10 125 -10Q78 -10 48 15T18 80Q18 131 52 165T132 211Q184 223 283 225Q291
259 291 279Q291 308 273 320T211 333Q189 333 159 328ZM198 42T256 88L275 178Q209 177 173 169Q133 161 111 145T82 98Q81 94 81 87Q81 66 97 54T136 42Q198 42 256 88ZM217 536T228 530T258 510Q281 491 294 491Q311 491 322 503T345 538L388 519Q374 484 349
464T290 443Q271 443 259 449T230 469Q222 476 214 481T199 486Q184 486 173 474T151 440L108 459Q123 495 148 515T203 536Q217 536 228 530Z" />
<glyph unicode="&#xe4;" glyph-name="adieresis" horiz-adv-x="393" d="M189 333T159 328T104 316L95 366Q164 388 223 388Q287 388 321 365T355 287Q355 266 351 246L303 0H255L249 34Q185 -10 125 -10Q78 -10 48 15T18 80Q18 131 52 165T132 211Q184 223 283
225Q291 259 291 279Q291 308 273 320T211 333Q189 333 159 328ZM198 42T256 88L275 178Q209 177 173 169Q133 161 111 145T82 98Q81 94 81 87Q81 66 97 54T136 42Q198 42 256 88ZM162 465T153 474T143 498Q143 504 144 507Q146 520 158 529T183 539Q200 539 209
527T216 497Q213 484 201 475T176 465Q162 465 153 474ZM300 465T291 474T281 498Q281 504 282 507Q284 520 296 529T321 539Q338 539 347 527T354 497Q351 484 339 475T314 465Q300 465 291 474Z" />
<glyph unicode="&#xe5;" glyph-name="aring" horiz-adv-x="393" d="M189 333T159 328T104 316L95 366Q164 388 223 388Q287 388 321 365T355 287Q355 266 351 246L303 0H255L249 34Q185 -10 125 -10Q78 -10 48 15T18 80Q18 131 52 165T132 211Q184 223 283 225Q291
259 291 279Q291 308 273 320T211 333Q189 333 159 328ZM198 42T256 88L275 178Q209 177 173 169Q133 161 111 145T82 98Q81 94 81 87Q81 66 97 54T136 42Q198 42 256 88ZM172 560T201 584T265 609Q301 609 321 589T341 536Q341 531 339 517Q332 484 303 460T240
435Q203 435 184 455T164 506Q164 513 166 527Q172 560 201 584ZM301 535Q301 550 292 559T266 569Q244 569 228 555T206 517Q205 513 205 507Q205 493 214 484T238 475Q260 475 277 490T300 527L301 535Z" />
<glyph unicode="&#xe6;" glyph-name="ae" horiz-adv-x="630" d="M535 389T568 357T602 264Q602 236 597 213L592 180L586 172L330 170Q326 153 326 133Q326 90 354 68T441 46Q489 46 538 62L545 12Q482 -8 421 -8Q315 -8 287 58Q255 24 214 7T125 -10Q78 -10 48
15T18 80Q18 87 20 101Q28 144 58 171T130 209Q197 225 283 225Q290 252 290 275Q290 305 272 319T211 333Q189 333 159 328T104 316L95 366Q164 388 223 388Q309 388 338 333Q368 362 400 375T471 389Q535 389 568 357ZM539 243T539 264Q539 298 524 318T475 338Q380
338 341 222L535 226Q539 243 539 264ZM172 42T199 53T253 88L275 178Q224 177 189 173T121 152T82 98Q81 93 81 84Q81 42 136 42Q172 42 199 53Z" />
<glyph unicode="&#xe7;" glyph-name="ccedilla" horiz-adv-x="366" d="M183 335T142 279T100 148Q100 90 131 69T214 48Q252 48 291 62L303 12Q271 1 246 -4T191 -9Q161 -9 137 -3L115 -49Q151 -59 169 -75T187 -120Q187 -159 162 -183T87 -207Q67 -207 53 -204T20
-194T-7 -185L14 -142Q52 -155 67 -158T95 -161Q114 -161 124 -153T138 -126Q142 -103 106 -95L51 -81L92 11H100Q68 28 51 59T34 132Q34 197 57 255T134 351T273 389Q322 389 370 367L348 321Q312 335 273 335Q183 335 142 279Z" />
<glyph unicode="&#xe8;" glyph-name="egrave" horiz-adv-x="402" d="M373 389T373 260Q373 247 369 213L364 180L359 172L97 170Q93 146 93 137Q93 46 215 46Q264 46 312 62L319 12Q257 -8 194 -8Q115 -8 74 29T32 135Q32 160 38 190Q56 279 113 334T244 389Q373
389 373 260ZM313 243T313 263Q313 298 297 318T249 338Q195 338 160 305T108 222L309 226Q313 243 313 263ZM300 427L173 550L215 593L339 465L300 427Z" />
<glyph unicode="&#xe9;" glyph-name="eacute" horiz-adv-x="402" d="M373 389T373 260Q373 247 369 213L364 180L359 172L97 170Q93 146 93 137Q93 46 215 46Q264 46 312 62L319 12Q257 -8 194 -8Q115 -8 74 29T32 135Q32 160 38 190Q56 279 113 334T244 389Q373
389 373 260ZM313 243T313 263Q313 298 297 318T249 338Q195 338 160 305T108 222L309 226Q313 243 313 263ZM356 550L183 427L154 468L324 596L356 550Z" />
<glyph unicode="&#xea;" glyph-name="ecircumflex" horiz-adv-x="402" d="M373 389T373 260Q373 247 369 213L364 180L359 172L97 170Q93 146 93 137Q93 46 215 46Q264 46 312 62L319 12Q257 -8 194 -8Q115 -8 74 29T32 135Q32 160 38 190Q56 279 113 334T244
389Q373 389 373 260ZM313 243T313 263Q313 298 297 318T249 338Q195 338 160 305T108 222L309 226Q313 243 313 263ZM339 432L272 515L174 433L140 470L279 592L378 466L339 432Z" />
<glyph unicode="&#xeb;" glyph-name="edieresis" horiz-adv-x="402" d="M373 389T373 260Q373 247 369 213L364 180L359 172L97 170Q93 146 93 137Q93 46 215 46Q264 46 312 62L319 12Q257 -8 194 -8Q115 -8 74 29T32 135Q32 160 38 190Q56 279 113 334T244 389Q373
389 373 260ZM313 243T313 263Q313 298 297 318T249 338Q195 338 160 305T108 222L309 226Q313 243 313 263ZM177 465T168 474T158 498Q158 504 159 507Q161 520 173 529T198 539Q215 539 224 527T231 497Q228 484 216 475T191 465Q177 465 168 474ZM315 465T306
474T296 498Q296 504 297 507Q299 520 311 529T336 539Q353 539 362 527T369 497Q366 484 354 475T329 465Q315 465 306 474Z" />
<glyph unicode="&#xec;" glyph-name="igrave" horiz-adv-x="181" d="M86 0H21L95 384H160L86 0ZM187 427L60 550L102 593L226 465L187 427Z" />
<glyph unicode="&#xed;" glyph-name="iacute" horiz-adv-x="181" d="M86 0H21L95 384H160L86 0ZM243 550L70 427L41 468L211 596L243 550Z" />
<glyph unicode="&#xee;" glyph-name="icircumflex" horiz-adv-x="181" d="M86 0H21L95 384H160L86 0ZM226 432L159 515L61 433L27 470L166 592L265 466L226 432Z" />
<glyph unicode="&#xef;" glyph-name="idieresis" horiz-adv-x="181" d="M86 0H21L95 384H160L86 0ZM64 465T55 474T45 498Q45 504 46 507Q48 520 60 529T85 539Q102 539 111 527T118 497Q115 484 103 475T78 465Q64 465 55 474ZM202 465T193 474T183 498Q183 504
184 507Q186 520 198 529T223 539Q240 539 249 527T256 497Q253 484 241 475T216 465Q202 465 193 474Z" />
<glyph unicode="&#xf0;" glyph-name="eth" horiz-adv-x="444" d="M426 418T426 331Q426 294 417 251Q394 138 331 65T177 -8Q106 -8 67 32T28 134Q28 155 32 172Q42 226 74 270T154 340T254 366Q301 366 361 329Q361 402 324 448L245 401L224 439L292 480Q267
499 227 517L264 567Q314 546 349 514L426 560L446 521L379 481Q426 418 426 331ZM229 51T268 92T329 187T352 267Q326 286 305 296T254 307Q201 307 155 271T98 182Q93 157 93 141Q93 99 115 75T179 51Q229 51 268 92Z" />
<glyph unicode="&#xf1;" glyph-name="ntilde" horiz-adv-x="427" d="M325 265T325 282Q325 310 310 322T259 335Q210 335 145 307L84 0H19L93 384H137L144 353Q218 390 285 390Q338 390 365 365T392 293Q392 282 388 258L338 0H273L321 246Q325 265 325 282ZM251
536T262 530T292 510Q315 491 328 491Q345 491 356 503T379 538L422 519Q408 484 383 464T324 443Q305 443 293 449T264 469Q256 476 248 481T233 486Q218 486 207 474T185 440L142 459Q157 495 182 515T237 536Q251 536 262 530Z" />
<glyph unicode="&#xf2;" glyph-name="ograve" horiz-adv-x="447" d="M113 -9T73 31T33 140Q33 167 39 195Q57 285 114 337T259 389Q334 389 374 350T414 242Q414 216 408 186Q390 98 331 45T187 -9Q113 -9 73 31ZM199 338T158 295T104 185Q100 166 100 144Q100
99 123 72T192 44Q249 44 290 86T344 195Q348 214 348 234Q348 281 325 309T257 338Q199 338 158 295ZM324 427L197 550L239 593L363 465L324 427Z" />
<glyph unicode="&#xf3;" glyph-name="oacute" horiz-adv-x="447" d="M113 -9T73 31T33 140Q33 167 39 195Q57 285 114 337T259 389Q334 389 374 350T414 242Q414 216 408 186Q390 98 331 45T187 -9Q113 -9 73 31ZM199 338T158 295T104 185Q100 166 100 144Q100
99 123 72T192 44Q249 44 290 86T344 195Q348 214 348 234Q348 281 325 309T257 338Q199 338 158 295ZM380 550L207 427L178 468L348 596L380 550Z" />
<glyph unicode="&#xf4;" glyph-name="ocircumflex" horiz-adv-x="447" d="M113 -9T73 31T33 140Q33 167 39 195Q57 285 114 337T259 389Q334 389 374 350T414 242Q414 216 408 186Q390 98 331 45T187 -9Q113 -9 73 31ZM199 338T158 295T104 185Q100 166 100 144Q100
99 123 72T192 44Q249 44 290 86T344 195Q348 214 348 234Q348 281 325 309T257 338Q199 338 158 295ZM363 432L296 515L198 433L164 470L303 592L402 466L363 432Z" />
<glyph unicode="&#xf5;" glyph-name="otilde" horiz-adv-x="447" d="M113 -9T73 31T33 140Q33 167 39 195Q57 285 114 337T259 389Q334 389 374 350T414 242Q414 216 408 186Q390 98 331 45T187 -9Q113 -9 73 31ZM199 338T158 295T104 185Q100 166 100 144Q100
99 123 72T192 44Q249 44 290 86T344 195Q348 214 348 234Q348 281 325 309T257 338Q199 338 158 295ZM256 536T267 530T297 510Q320 491 333 491Q350 491 361 503T384 538L427 519Q413 484 388 464T329 443Q310 443 298 449T269 469Q261 476 253 481T238 486Q223
486 212 474T190 440L147 459Q162 495 187 515T242 536Q256 536 267 530Z" />
<glyph unicode="&#xf6;" glyph-name="odieresis" horiz-adv-x="447" d="M113 -9T73 31T33 140Q33 167 39 195Q57 285 114 337T259 389Q334 389 374 350T414 242Q414 216 408 186Q390 98 331 45T187 -9Q113 -9 73 31ZM199 338T158 295T104 185Q100 166 100 144Q100
99 123 72T192 44Q249 44 290 86T344 195Q348 214 348 234Q348 281 325 309T257 338Q199 338 158 295ZM201 465T192 474T182 498Q182 504 183 507Q185 520 197 529T222 539Q239 539 248 527T255 497Q252 484 240 475T215 465Q201 465 192 474ZM339 465T330 474T320
498Q320 504 321 507Q323 520 335 529T360 539Q377 539 386 527T393 497Q390 484 378 475T353 465Q339 465 330 474Z" />
<glyph unicode="&#xf7;" glyph-name="divide" horiz-adv-x="450" d="M205 320T194 332T182 363Q182 382 193 394T225 406Q245 406 256 394T268 363Q268 344 257 332T225 320Q205 320 194 332ZM390 204V260H60V204H390ZM205 58T194 70T182 101Q182 120 193 132T225
144Q245 144 256 132T268 101Q268 82 257 70T225 58Q205 58 194 70Z" />
<glyph unicode="&#xf8;" glyph-name="oslash" horiz-adv-x="462" d="M424 282T424 242Q424 216 418 186Q401 98 342 45T197 -9Q125 -9 84 30L34 -12L-3 28L54 77Q43 107 43 141Q43 167 49 195Q67 285 124 337T270 389Q339 389 378 356L428 399L465 355L412 310Q424
282 424 242ZM110 166T110 145Q110 132 111 126L330 315Q309 338 268 338Q210 338 169 295T114 185Q110 166 110 145ZM358 214T358 234Q358 244 356 262L133 72Q158 44 203 44Q260 44 301 86T354 195Q358 214 358 234Z" />
<glyph unicode="&#xf9;" glyph-name="ugrave" horiz-adv-x="427" d="M102 116T102 99Q102 71 117 59T169 46Q216 46 281 74L343 384H408L334 0H290L282 27Q204 -10 142 -10Q90 -10 63 16T35 87Q35 106 39 123L89 384H154L106 135Q102 116 102 99ZM299 427L172
550L214 593L338 465L299 427Z" />
<glyph unicode="&#xfa;" glyph-name="uacute" horiz-adv-x="427" d="M102 116T102 99Q102 71 117 59T169 46Q216 46 281 74L343 384H408L334 0H290L282 27Q204 -10 142 -10Q90 -10 63 16T35 87Q35 106 39 123L89 384H154L106 135Q102 116 102 99ZM355 550L182
427L153 468L323 596L355 550Z" />
<glyph unicode="&#xfb;" glyph-name="ucircumflex" horiz-adv-x="427" d="M102 116T102 99Q102 71 117 59T169 46Q216 46 281 74L343 384H408L334 0H290L282 27Q204 -10 142 -10Q90 -10 63 16T35 87Q35 106 39 123L89 384H154L106 135Q102 116 102 99ZM338 432L271
515L173 433L139 470L278 592L377 466L338 432Z" />
<glyph unicode="&#xfc;" glyph-name="udieresis" horiz-adv-x="427" d="M102 116T102 99Q102 71 117 59T169 46Q216 46 281 74L343 384H408L334 0H290L282 27Q204 -10 142 -10Q90 -10 63 16T35 87Q35 106 39 123L89 384H154L106 135Q102 116 102 99ZM176 465T167
474T157 498Q157 504 158 507Q160 520 172 529T197 539Q214 539 223 527T230 497Q227 484 215 475T190 465Q176 465 167 474ZM314 465T305 474T295 498Q295 504 296 507Q298 520 310 529T335 539Q352 539 361 527T368 497Q365 484 353 475T328 465Q314 465 305
474Z" />
<glyph unicode="&#xfd;" glyph-name="yacute" horiz-adv-x="412" d="M325 550L152 427L123 468L293 596L325 550ZM94 -206H20L132 -20L59 384H123L179 66L359 384H428L94 -206Z" />
<glyph unicode="&#xfe;" glyph-name="thorn" horiz-adv-x="446" d="M131 -10T94 34L45 -206H-20L127 550H192L151 346Q197 388 267 388Q335 388 373 346T411 235Q411 211 407 190Q395 128 363 83T287 14T193 -10Q131 -10 94 34ZM246 46T289 86T344 185Q349 212
349 230Q349 276 326 304T255 334Q199 334 164 293T116 184Q109 144 109 125Q109 106 114 91Q136 46 191 46Q246 46 289 86Z" />
<glyph unicode="&#xff;" glyph-name="ydieresis" horiz-adv-x="415" d="M94 -206H20L132 -20L59 384H123L179 66L359 384H428L94 -206ZM162 465T153 474T143 498Q143 504 144 507Q146 520 158 529T183 539Q200 539 209 527T216 497Q213 484 201 475T176 465Q162
465 153 474ZM300 465T291 474T281 498Q281 504 282 507Q284 520 296 529T321 539Q338 539 347 527T354 497Q351 484 339 475T314 465Q300 465 291 474Z" />
<glyph unicode="&#x2013;" glyph-name="endash" horiz-adv-x="435" d="M369 190H33L42 237H378L369 190Z" />
<glyph unicode="&#x2014;" glyph-name="emdash" horiz-adv-x="646" d="M579 190H33L42 237H588L579 190Z" />
<glyph unicode="&#x2018;" glyph-name="quoteleft" horiz-adv-x="192" d="M172 455T172 431Q172 423 171 419Q168 404 155 394T125 384Q107 384 97 394T86 422Q86 450 111 482T172 543L196 522Q172 493 152 464Q172 455 172 431Z" />
<glyph unicode="&#x2019;" glyph-name="quoteright" horiz-adv-x="192" d="M190 541T200 530T211 501Q211 473 186 441T124 382L101 402Q105 408 120 427T145 461Q125 470 125 494Q125 502 126 506Q129 520 142 530T172 541Q190 541 200 530Z" />
<glyph unicode="&#x201a;" glyph-name="quotesinglbase" horiz-adv-x="201" d="M108 70T118 60T129 31Q129 3 104 -29T42 -89L19 -69Q59 -15 63 -10Q43 -1 43 23Q43 31 44 35Q46 49 59 59T90 70Q108 70 118 60Z" />
<glyph unicode="&#x201c;" glyph-name="quotedblleft" horiz-adv-x="307" d="M182 455T182 431Q182 423 181 419Q178 404 165 394T135 384Q117 384 107 394T96 422Q96 450 121 482T182 543L206 522Q182 493 162 464Q182 455 182 431ZM297 455T297 431Q297 423
296 419Q293 404 280 394T250 384Q232 384 222 394T211 422Q211 450 236 482T297 543L321 522Q297 493 277 464Q297 455 297 431Z" />
<glyph unicode="&#x201d;" glyph-name="quotedblright" horiz-adv-x="307" d="M436 541T446 530T457 501Q457 473 432 441T370 382L347 402Q351 408 366 427T391 461Q371 470 371 494Q371 502 372 506Q375 520 388 530T418 541Q436 541 446 530ZM295 541T305 530T316
501Q316 473 291 441T229 382L206 402Q210 408 225 427T250 461Q230 470 230 494Q230 502 231 506Q234 520 247 530T277 541Q295 541 305 530Z" />
<glyph unicode="&#x201e;" glyph-name="quotedblbase" horiz-adv-x="317" d="M108 71T118 60T129 31Q129 3 104 -29T42 -88L19 -68Q23 -62 38 -43T63 -9Q43 0 43 24Q43 32 44 36Q47 50 60 60T90 71Q108 71 118 60ZM223 71T233 60T244 31Q244 3 219 -29T157 -88L134
-68Q138 -62 153 -43T178 -9Q158 0 158 24Q158 32 159 36Q162 50 175 60T205 71Q223 71 233 60Z" />
<glyph unicode="&#x2022;" glyph-name="bullet" horiz-adv-x="535" d="M294 135T332 157T395 218T419 298Q419 342 389 371T313 400Q276 400 241 382T181 332T149 263Q147 247 147 240Q147 195 176 165T253 135Q294 135 332 157Z" />
<glyph unicode="&#x2039;" glyph-name="guilsinglleft" horiz-adv-x="217" d="M110 100H176L107 235L234 384H165L39 241L110 100Z" />
<glyph unicode="&#x203a;" glyph-name="guilsinglright" horiz-adv-x="215" d="M127 246L2 100H73L196 241L127 384H62L127 246Z" />
</font>
</defs>
</svg>
